FIFA 11 – Bande Annonce | ‹ Articles plus anciens | Heroes In the Sky

Modern Family S07E05 HDTV x264-KILLERS[rartv]

seeders: 92
leechers: 3
updated:
Added by z0n3212.58M in TV
Torrent verified. Downloaded 191,730 times.

DownloadFast Safe Anonymous
movies, software, shows...
  • View all Modern Family episodes
  • Episode title: The Verdict
  • Episode: S07E05
  • Air date: 21 October 2015
  • IMDb link: 1442437
  • TVmaze link: Modern Family
  • Original run: 23 September 2009 — Present
  • Summary:

    Three different, but related families face trials and tribulations in their own uniquely comedic ways.

    Written by Eppo77.2K
Available in versions: 1080p720p480pHDTVWEBRipx264x265
Modern Family S07E05 HDTV x264-KILLERS[rartv] (Size: 213.68 MB)
  Modern.Family.S07E05.HDTV.x264-KILLERS.mp4 213.67 MB
  rarbg.com.txt 34 bytes
  Modern.Family.S07E05.HDTV.x264-KILLERS.nfo 10.61 KB

Description


http://rarbg.to
Modern.Family.S07E05.HDTV.x264-KILLERS[rartv]

image
Screens :

image
Mediainfo :

Video
ID : 2
Format : AVC
Format/Info : Advanced Video Codec
Format profile : [email protected]
Format settings, CABAC : Yes
Format settings, ReFrames : 5 frames
Codec ID : avc1
Codec ID/Info : Advanced Video Coding
Duration : 21mn 26s
Source duration : 21mn 26s
Bit rate : 1 281 Kbps
Maximum bit rate : 3 538 Kbps
Width : 720 pixels
Height : 404 pixels
Display aspect ratio : 16:9
Frame rate mode : Constant
Frame rate : 23.976 fps
Color space : YUV
Chroma subsampling : 4:2:0
Bit depth : 8 bits
Scan type : Progressive
Bits/(Pixel*Frame) : 0.184
Stream size : 196 MiB (92%)
Source stream size : 196 MiB (92%)
Writing library : x264 core 148 r2638 7599210
Encoding settings : cabac=1 / ref=5 / deblock=1:0:0 / analyse=0x3:0x113 / me=umh / subme=8 / psy=1 / psy_rd=1.00:0.00 / mixed_ref=1 / me_range=16 / chroma_me=1 / trellis=1 / 8x8dct=1 / cqm=0 / deadzone=21,11 / fast_pskip=1 / chroma_qp_offset=-2 / threads=13 / lookahead_threads=2 / sliced_threads=0 / nr=0 / decimate=1 / interlaced=0 / bluray_compat=0 / constrained_intra=0 / bframes=3 / b_pyramid=2 / b_adapt=2 / b_bias=0 / direct=3 / weightb=1 / open_gop=0 / weightp=2 / keyint=250 / keyint_min=23 / scenecut=40 / intra_refresh=0 / rc_lookahead=50 / rc=crf / mbtree=1 / crf=19.0 / qcomp=0.60 / qpmin=0 / qpmax=69 / qpstep=4 / ip_ratio=1.40 / aq=1:1.00
Encoded date : UTC 2015-10-22 01:18:11
Tagged date : UTC 2015-10-22 01:32:05
Color range : Limited
Matrix coefficients : BT.709

Audio
ID : 1
Format : AAC
Format/Info : Advanced Audio Codec
Format profile : LC
Codec ID : 40
Duration : 21mn 26s
Bit rate mode : Variable
Bit rate : 108 Kbps
Maximum bit rate : 171 Kbps
Channel(s) : 2 channels
Channel positions : Front: L R
Sampling rate : 48.0 KHz
Compression mode : Lossy
Stream size : 16.6 MiB (8%)
Encoded date : UTC 2015-10-22 01:32:05
Tagged date : UTC 2015-10-22 01:32:05

Related Torrents

torrent name size files age seed leech

Sharing Widget


Download torrent
213.68 MB
seeders:77
leechers:3
Modern Family S07E05 HDTV x264-KILLERS[rartv]



To share this torrent use the code below and insert it into comments, status messages, forum posts or your signature.

Torrent: Modern Family S07E05 HDTV x264-KILLERS[rartv]

Trackers

tracker name
udp://tracker.openbittorrent.com:80/announce
udp://tracker.publicbt.com:80/announce
udp://9.rarbg.me:2710/announce
udp://coppersurfer.tk:6969/announce
udp://open.demonii.com:1337/announce
udp://glotorrents.pw:6969/announce
udp://tracker4.piratux.com:6969/announce
http://tracker.trackerfix.com/announce
udp://9.rarbg.to:2710/announce
µTorrent compatible trackers list

Locations

name
KickassTorrents
Torrent hash: 91B3D458A7044C57E1C701F9E7229A34A230D64D

All Comments

audio
9/10
video
9/10
please, leave only comments related to that torrent
Sign In

User Opinions

davidlb12.07K, alotofthings10.08K, babY-s0n1a5839, ammarliaqat5311, Stoned625093, zenthepoet1359, Agent 47988, Shrey.m949, nevena840, mrruffian679 ... And 1356 more
Pelete1935
Report a bug Open chat
Sitemap