Zabójcze umysły: Okiem spra... | Parallel Programming Concepts and Practice | The Most Assassinated Woman in the World

Family Guy S14E17 720p HDTV x264-AVS[rartv]

seeders: 146
leechers: 4
updated:
Added by z0n3212.58M in TV
Torrent verified. Downloaded 25,944 times.

DownloadFast Safe Anonymous
movies, software, shows...
  • View all Family Guy episodes
  • Episode title: Take a Letter
  • Episode: S14E17
  • Air date: 17 April 2016
  • IMDb link: 0182576
  • TVmaze link: Family Guy
  • Original run: 31 January 1999 — Present
  • Summary:

    In a wacky Rhode Island town, a dysfunctional family strive to cope with everyday life as they are thrown from one crazy scenario to another.

    Written by Thhaque414.94K
Available in versions: 1080p720p480pHDTVWEBRipx264x265iPhone
Family Guy S14E17 720p HDTV x264-AVS[rartv] (Size: 320.67 MB)
  Family.Guy.S14E17.720p.HDTV.x264-AVS.mkv 320.67 MB
  rarbg.com.txt 34 bytes
  Family.Guy.S14E17.720p.HDTV.x264-AVS.nfo 59 bytes

Description


http://rarbg.to
Family.Guy.S14E17.720p.HDTV.x264-AVS[rartv]

image
Screens :

image
Mediainfo :

Video
ID : 1
Format : AVC
Format/Info : Advanced Video Codec
Format profile : [email protected]
Format settings, CABAC : Yes
Format settings, ReFrames : 5 frames
Codec ID : V_MPEG4/ISO/AVC
Duration : 20mn 54s
Bit rate : 1 653 Kbps
Width : 1 280 pixels
Height : 718 pixels
Display aspect ratio : 16:9
Frame rate mode : Constant
Frame rate : 23.976 (24000/1001) fps
Color space : YUV
Chroma subsampling : 4:2:0
Bit depth : 8 bits
Scan type : Progressive
Bits/(Pixel*Frame) : 0.075
Stream size : 247 MiB (77%)
Writing library : x264 core 148 r2665 a01e339
Encoding settings : cabac=1 / ref=5 / deblock=1:0:0 / analyse=0x3:0x113 / me=umh / subme=8 / psy=1 / psy_rd=1.00:0.00 / mixed_ref=1 / me_range=16 / chroma_me=1 / trellis=1 / 8x8dct=1 / cqm=0 / deadzone=21,11 / fast_pskip=1 / chroma_qp_offset=-2 / threads=18 / lookahead_threads=3 / sliced_threads=0 / nr=0 / decimate=1 / interlaced=0 / bluray_compat=0 / constrained_intra=0 / bframes=3 / b_pyramid=2 / b_adapt=2 / b_bias=0 / direct=3 / weightb=1 / open_gop=0 / weightp=2 / keyint=250 / keyint_min=23 / scenecut=40 / intra_refresh=0 / rc_lookahead=50 / rc=crf / mbtree=1 / crf=18.0 / qcomp=0.60 / qpmin=0 / qpmax=69 / qpstep=4 / ip_ratio=1.40 / aq=1:1.00
Default : Yes
Forced : No
Color range : Limited
Matrix coefficients : BT.709

Audio
ID : 2
Format : AC-3
Format/Info : Audio Coding 3
Mode extension : CM (complete main)
Format settings, Endianness : Big
Codec ID : A_AC3
Duration : 20mn 54s
Bit rate mode : Constant
Bit rate : 448 Kbps
Channel(s) : 6 channels
Channel positions : Front: L C R, Side: L R, LFE
Sampling rate : 48.0 KHz
Frame rate : 31.250 fps (1536 spf)
Compression mode : Lossy
Stream size : 67.0 MiB (21%)
Default : Yes
Forced : No

Related Torrents

torrent name size files age seed leech

Sharing Widget


Download torrent
320.67 MB
seeders:107
leechers:2
Family Guy S14E17 720p HDTV x264-AVS[rartv]



To share this torrent use the code below and insert it into comments, status messages, forum posts or your signature.

Torrent: Family Guy S14E17 720p HDTV x264-AVS[rartv]

Trackers

tracker name
udp://tracker.openbittorrent.com:80/announce
udp://tracker.publicbt.com:80/announce
udp://tracker.coppersurfer.tk:6969/announce
udp://glotorrents.pw:6969/announce
udp://tracker.opentrackr.org:1337/announce
µTorrent compatible trackers list

Locations

name
KickassTorrents
Torrent hash: 84D620F40E1D4A3EA71ED3E312D04D5704EC37F7

Top Comments

5
Hibbenshot3356
It's a glitch with VLC. Just close it out and restart it, it will be back to normal. Happens to me all the time.
4
TeamSAXON18
Not sure why it looks like this in vlc
2
anonymous
Reason is you have some kind of multi blur on, like sometimes you have to close your VLC and start video again to play it normally again, I don't know why VLC is doing this at times.

All Comments

audio
9/10
video
9/10
please, leave only comments related to that torrent
Sign In

audio: 9video: 9
Thank you.
audio: 10video: 10
Thank you z0n3212.58M thumb_up
Awesome upload biggrin
audio: 10video: 10
Thanks.
audio: 10video: 9
Great copy, thanks thumb_up
audio: 9video: 8
legit, thanx2uploader&seederz;)
audio: 10video: 10
Thank you! thumb_up
Show More All

User Opinions

will0773931, CypryanV3929, nlx_781312, lihtster1296, zybor953, FruTV618, takanuva200399, hummad324, harmen297, durdentyler177 ... And 680 more
leftyrighty898, donsicks878, iknowdastruth20
Report a bug Open chat
Sitemap