Family Guy S14E11 HDTV x264-KILLERS[rartv]

seeders: 127
leechers: 7
updated:
Added by z0n3212.58M in TV
Torrent verified. Downloaded 79,238 times.

DownloadFast Safe Anonymous
movies, software, shows...
  • View all Family Guy episodes
  • Episode title: The Peanut Butter Kid
  • Episode: S14E11
  • Air date: 10 January 2016
  • IMDb link: 0182576
  • TVmaze link: Family Guy
  • Original run: 31 January 1999 — Present
  • Summary:

    In a wacky Rhode Island town, a dysfunctional family strive to cope with everyday life as they are thrown from one crazy scenario to another.

    Written by Thhaque414.95K
Available in versions: 1080p720p480pHDTVWEBRipx264x265iPhone
Family Guy S14E11 HDTV x264-KILLERS[rartv] (Size: 73.83 MB)
  Family.Guy.S14E11.HDTV.x264-KILLERS.mp4 73.82 MB
  rarbg.com.txt 34 bytes
  Family.Guy.S14E11.HDTV.x264-KILLERS.nfo 10.61 KB

Description


http://rarbg.to
Family.Guy.S14E11.HDTV.x264-KILLERS[rartv]

image
Screens :

image
Mediainfo :

Video
ID : 2
Format : AVC
Format/Info : Advanced Video Codec
Format profile : [email protected]
Format settings, CABAC : Yes
Format settings, ReFrames : 5 frames
Codec ID : avc1
Codec ID/Info : Advanced Video Coding
Duration : 21mn 30s
Source duration : 21mn 30s
Bit rate : 369 Kbps
Maximum bit rate : 4 391 Kbps
Width : 720 pixels
Height : 404 pixels
Display aspect ratio : 16:9
Frame rate mode : Constant
Frame rate : 23.976 (24000/1001) fps
Color space : YUV
Chroma subsampling : 4:2:0
Bit depth : 8 bits
Scan type : Progressive
Bits/(Pixel*Frame) : 0.053
Stream size : 56.7 MiB (77%)
Source stream size : 56.7 MiB (77%)
Writing library : x264 core 148 r2638 7599210
Encoding settings : cabac=1 / ref=5 / deblock=1:0:0 / analyse=0x3:0x113 / me=umh / subme=8 / psy=1 / psy_rd=1.00:0.00 / mixed_ref=1 / me_range=16 / chroma_me=1 / trellis=1 / 8x8dct=1 / cqm=0 / deadzone=21,11 / fast_pskip=1 / chroma_qp_offset=-2 / threads=13 / lookahead_threads=2 / sliced_threads=0 / nr=0 / decimate=1 / interlaced=0 / bluray_compat=0 / constrained_intra=0 / bframes=3 / b_pyramid=2 / b_adapt=2 / b_bias=0 / direct=3 / weightb=1 / open_gop=0 / weightp=2 / keyint=250 / keyint_min=23 / scenecut=40 / intra_refresh=0 / rc_lookahead=50 / rc=crf / mbtree=1 / crf=19.0 / qcomp=0.60 / qpmin=0 / qpmax=69 / qpstep=4 / ip_ratio=1.40 / aq=1:1.00
Encoded date : UTC 2016-01-11 02:17:19
Tagged date : UTC 2016-01-11 02:33:24
Color range : Limited
Matrix coefficients : BT.709

Audio
ID : 1
Format : AAC
Format/Info : Advanced Audio Codec
Format profile : LC
Codec ID : 40
Duration : 21mn 30s
Bit rate mode : Variable
Bit rate : 107 Kbps
Maximum bit rate : 176 Kbps
Channel(s) : 2 channels
Channel positions : Front: L R
Sampling rate : 48.0 KHz
Frame rate : 46.875 fps (1024 spf)
Compression mode : Lossy
Stream size : 16.5 MiB (22%)
Encoded date : UTC 2016-01-11 02:33:24
Tagged date : UTC 2016-01-11 02:33:24

Related Torrents

torrent name size files age seed leech

Sharing Widget


Download torrent
73.83 MB
seeders:113
leechers:7
Family Guy S14E11 HDTV x264-KILLERS[rartv]



To share this torrent use the code below and insert it into comments, status messages, forum posts or your signature.

Torrent: Family Guy S14E11 HDTV x264-KILLERS[rartv]

Trackers

tracker name
udp://tracker.openbittorrent.com:80/announce
udp://tracker.publicbt.com:80/announce
udp://tracker.coppersurfer.tk:6969/announce
udp://glotorrents.pw:6969/announce
http://tracker.mg64.net:6881/announce
http://open.acgtracker.com:1096/announce
µTorrent compatible trackers list

Locations

name
KickassTorrents
Torrent hash: 44291EEB3FE2A8B518B5F7CBF37880E89B747378

All Comments

audio
9/10
video
9/10
please, leave only comments related to that torrent
Sign In

audio: 9video: 9
Solid work from ettv8.61M thump_up
Thanks for the share smile
audio: 9video: 9
Thank you z0n3212.58M
audio: 9video: 9
Good stuff, ty!
audio: 10video: 10
Thank You smile
audio: 9video: 9
Thank you z0n321 for this torrent. Ran great under VLC for PC. No issues at all

Last edited by alotofthings, 4 months ago

audio: 9
awesome thank you
audio: 9video: 10
all good, thank you
Show More All

User Opinions

alotofthings10.08K, Naskal6719, Stoned625093, bosslove723457, Arnaud401472, ryden450, mikilaum415, hummad324, urtoasted813219, Junny300592 ... And 971 more
maxithom1600, donkeyhawkey504, Ipsith495, Wilfreddk364, Danejris290, pootytang46668
Report a bug Open chat
SitemapMegadeth - That One Night Live in Buenos Aires 2005. | Michael Kors Selma Medium Tasche Cognach Wi Neu | 1x574 Elif